Video konvertálása telefonra

Fórumok

Sziasztok.
Mivel lehetne megoldani azt,hogy tudjak konvertálni videót(avi,mpeg,wmv)
olyan formátumba(3gp) amit telefon le tud játszani.Találtam egy programot grafikus felülettel(3gpwiz)amivel lehet 3gp-ból konvertálni,viszont visszafelé nem működik.
Minden segítséget és linket köszönök.

Hozzászólások

szerintem ffmpeg tud ilyet
mov,mpeg-4,3gp ezek nagyjabol ugyanazok a formatumok multiplexer szinten
video az h263
audio az valami amr
csak azert irom ezeket, mert ezt mind ismeri az ffmpeg
de ha az ffmpegben megsem menne olyan jol (mivel nem probaltam),
akkor valami ffmpeg/libavcodec alapu cucc biztos van ra

a real azzal a kamu opensource Helix-szel meg elmehet a ...

- Use the Source Luke ! -

Kicsit keresgéltem én is és ezt találtam.Szerintetek ez megteszi?
Convert video to 3GP format.

Now I expected this to be hard. Or at least take a lot of fiddling to get right. However, it seems to be quite easy. This site has all the goodness. It requires three steps. Now assume we have a file called movie.mpeg and we want to convert it to movie.3GP. The steps required would be

mencoder movie.mpeg -nosound -ovc lavc \
-lavcopts vcodec=mpeg4 \
-vop expand=176:144,scale=176:-2 \
-o movie.avi -ofps 12

This will extract the video, scale it and reduce the frame rate. Now we need to extract the sound.

mplayer -vo null -ao pcm -af \
resample=8000,volume=+4db:sc movie.mpeg

An output file called audiodump.wav will be created that has the audio that we require. Finally we need to combine these two files together.

ffmpeg -i movie.avi -i audiodump.wav \
-b 48 -ac 1 -ab 12 -map 0.0 -map 1.0 movie.3GP

And that is that. I suppose I should add this to the HantsLUG wiki. Next I need to bundle this lot up into a script so I can then forget all about how this works

Kösz a tippet kipróbáltam működik nálam is csak az vele a problémám,hogy szétesik a kép marhanagy pixelekre.Illetve melyik paramétert kell áttírni ha átt szeretném méretezni mert ha jól láttam ez 176x144-es méretűre csinálja.Nekem pl: 176x220 kelleni.
Köszönöm

nyilvan a 144-et kell 220-ra atirni
es igen, ez rossz minosegu lesz, mert a lavcopts-ban lehet megadni a sok
minosegjavito opciot. pl. mbd=2:dia=2:predia=2:precmp=2:cmp=2:subcmp=2:vpass=1:v4mv:trell:qprd:cbp
esetleg meg qns=1

de tudsz te is opcikoat vadaszni a netrol

meg vbitrate-tel a bitratat is meg lehetne adni (szinten lavcopts-ban), de nem tudom mennyi a szabvany

- Use the Source Luke ! -

Sziasztok!
Kiadtam az alábbi parancsot, de nem hajlandó dolgozni.

ffmpeg -i source.avi -r 12 -s qcif -b 64 -ab 12 -ac 1 -ar 8000 out.3gp

A következőt írja ki a konsol. Mi lehet ennek az oka? Nagyon elakadtam... Csinál egy 0 méretű out.3gp fájlt.
Minden jót!
Va

FFmpeg version CVS, Copyright (c) 2000-2004 Fabrice Bellard
configuration: --enable-gpl --enable-mp3lame --enable-libogg --enable-vorbis --enable-a52 --enable-a52bin --enable-faad --enable-faadbin --enable-dts --enable-libgsm --enable-faac --enable-x264 --enable-theora --enable-xvid --enable-pp --prefix=/usr --sysconfdir=/etc --localstatedir=/var --mandir=/usr/share/man --infodir=/usr/share/info --enable-shared --build=i586-uhu-linux --host=i586-uhu-linux
libavutil version: 49.0.0
libavcodec version: 51.1.0
libavformat version: 50.0.0
built on Aug 9 2006 03:02:58, gcc: 3.4.6

Seems that stream 0 comes from film source: 30000.00 (30000/1) -> 29.97 (30000/1001)
Input #0, avi, from 'source.avi':
Duration: 00:03:11.8, start: 0.000000, bitrate: 867 kb/s
Stream #0.0, 29.97 fps(r): Video: mpeg4, yuv420p, 320x240
Stream #0.1: Audio: mp3, 22050 Hz, stereo, 160 kb/s
File 'out.3gp' already exists. Overwrite ? [y/N] y
Output #0, 3gp, to 'out.3gp':
Stream #0.0, 12.00 fps(c): Video: h263, yuv420p, 176x144, q=2-31, 64 kb/s
Stream #0.1: Audio: 0x0000, 8000 Hz, mono, 12 kb/s
Stream mapping:
Stream #0.0 -> #0.0
Stream #0.1 -> #0.1
[h263 @ 0xb7dd49c8]removing common factors from framerate
Unsupported codec for output stream #0.1

Lin3gp kell neked. Egyszerű gui-s felület ffmpeg-et használja.

" amit telefon le tud játszani."

Létezik egy progi, amit telepítened kell a telóra!
(gondolom symbian)
Nokia 3650 telom volt, (szoftverhiba miatt lecseréltem) erre telepítettem és -igaz win alatt-
van egy progi ami filmeket a telora alakítja.
Így szemléltem sokáig a Bakta Raider fantasztikus alkotást! :)
Nem jut eszemban a progi neve, de ha még is akkor megírom! :)

----------------------------------------------------------------
"Értem én hogy villanymotor, de mi hajtja!?

Na emberek sry hogy csak így belepofázok de ami nekem nagyon bejött az egy kis programocska KDE-re, amit a Kommander hajt :) ill ez egy gui az ffmpeg-hez :) Vagyis annyi hogy nem kell hosszú sorokat írni a konzolba. Nekem ebből lett egy 100 Megás Silent Hill-em :) Úgyhogy jó volt metrózni ám :) (meg ha nőm behülyült nem unatkoztam XDXD) Naszóval róla lenne szó:
http://kde-apps.org/content/show.php/3gp-converter?content=55313
Jó szórakozást! Remélem tudtam segíteni :)
------------------------------------
tombiggy.freeblog.hu

R3TR0 H4RDW4R3 RUL3Z
P3NT1UM 2 RUL3Z
L1NUX RUL3Z